Legion S01e02 Web-dl X264-heff.torrent

Recommended FREE Download, Click Here

Um mit dem Herunterladen zu beginnen, brauchst du einen freien bitTorrent Client wie µTorrent

Informationen

Bookmark this torrent
Seeds63
Peers26
Größe367.55 MB
Alter1 Monat her von pheonix83 > verified Geprüft
DatumThursday 16 February 2017
Kommentare0
KategorieTV Sendungen > > verified Geprüft
Hashe76d4ccff97a95d62177549ac19a86fd31a13174
Gemeldet Fake (0) Passwort (0) Schlechte Qualität (0) Virus (0) Angriff (0) Spam (0) Echter Torrent (0)
Lesezeichen

Bezeichnung

General
Complete name : Legion.S01E02.WEB-DL.x264-HEFF.mp4
Format : MPEG-4
Format profile : Base Media / Version 2
Codec ID : mp42 (isom/iso2/avc1/mp41)
File size : 367 MiB
Duration : 49mn 28s
Overall bit rate : 1 038 Kbps

Video
ID : 1
Format : AVC
Format/Info : Advanced Video Codec
Format profile : High@L4.1
Format settings, CABAC : Yes
Format settings, ReFrames : 4 frames
Codec ID : avc1
Codec ID/Info : Advanced Video Coding
Duration : 49mn 28s
Bit rate : 900 Kbps
Width : 720 pixels
Height : 406 pixels
Display aspect ratio : 16:9
Frame rate mode : Variable
Frame rate : 23.976 (24000/1001) fps
Chroma subsampling : 4:2:0
Bit depth : 8 bits
Scan type : Progressive
Bits/(Pixel*Frame) : 0.128
Stream size : 318 MiB (87%)
Writing library : x264 core 148 r2643 5c65704

Audio
ID : 2
Format : AAC
Format/Info : Advanced Audio Codec
Format profile : LC
Codec ID : 40
Duration : 49mn 28s
Bit rate mode : Constant
Bit rate : 132 Kbps
Channel(s) : 2 channels
Channel positions : Front: L R
Sampling rate : 48.0 KHz
Frame rate : 46.875 fps (1024 spf)
Compression mode : Lossy
Stream size : 46.8 MiB (13%)
Title : Stereo / Stereo

Kommentare

0 Kommentare


Login | erstelle einen neuen Account
  

Dateien

DateinameGröße
image hefftorrents.com.jpg83.34 KB
video Legion.S01E02.WEB-DL.x264-HEFF.mp4367.47 MB

Trackers

TrackerSeedsPeers
udp://explodie.org:6969/announce 1 Monat her00
udp://zer0day.ch:1337/announce 1 Monat her00
udp://tracker.leechers-paradise.org:6969/announce 1 Monat her00
udp://tracker.coppersurfer.tk:6969/announce 1 Monat her00
udp://tracker.opentrackr.org:1337/announce 1 Monat her00

Verteile diesen torrent