John Wick 2014 Bluray 720p X264-heff.torrent

Recommended FREE Download, Click Here

Um mit dem Herunterladen zu beginnen, brauchst du einen freien bitTorrent Client wie µTorrent

Informationen

Bookmark this torrent
Seeds120
Peers45
Größe1.37 GB
Alter1 Woche her von pheonix83 > verified Geprüft
DatumThursday 16 February 2017
Kommentare0
KategorieFilme > Action > verified Geprüft
Hashed3d40b55d9fb3a1144b713f400ee5579e97ac3c
Gemeldet Fake (0) Passwort (0) Schlechte Qualität (0) Virus (0) Angriff (0) Spam (0) Echter Torrent (0)
Lesezeichen

Bezeichnung

General
Complete name : John.Wick.2014.BluRay.720p.x264-HEFF.mp4
Format : MPEG-4
Format profile : Base Media / Version 2
Codec ID : mp42 (isom/iso2/avc1/mp41)
File size : 1.37 GiB
Duration : 1h 41mn
Overall bit rate : 1 938 Kbps

Video
ID : 1
Format : AVC
Format/Info : Advanced Video Codec
Format profile : High@L4.1
Format settings, CABAC : Yes
Format settings, ReFrames : 4 frames
Codec ID : avc1
Codec ID/Info : Advanced Video Coding
Duration : 1h 41mn
Bit rate : 1 800 Kbps
Width : 1 280 pixels
Height : 534 pixels
Display aspect ratio : 2.40:1
Frame rate mode : Variable
Frame rate : 23.976 (24000/1001) fps
Chroma subsampling : 4:2:0
Bit depth : 8 bits
Scan type : Progressive
Bits/(Pixel*Frame) : 0.110
Stream size : 1.27 GiB (93%)
Writing library : x264 core 148 r2643 5c65704

Audio
ID : 2
Format : AAC
Format/Info : Advanced Audio Codec
Format profile : LC
Codec ID : 40
Duration : 1h 41mn
Bit rate mode : Constant
Bit rate : 132 Kbps
Channel(s) : 2 channels
Channel positions : Front: L R
Sampling rate : 48.0 KHz
Frame rate : 46.875 fps (1024 spf)
Compression mode : Lossy
Stream size : 95.9 MiB (7%)
Title : Stereo / Stereo

Kommentare

0 Kommentare


Login | erstelle einen neuen Account
  

Dateien

DateinameGröße
image hefftorrents.com.jpg83.34 KB
video John.Wick.2014.BluRay.720p.x264-HEFF.mp41.37 GB

Trackers

TrackerSeedsPeers
udp://tracker.coppersurfer.tk:6969/announce 1 Woche her00
udp://tracker.opentrackr.org:1337/announce 1 Woche her00
udp://explodie.org:6969/announce 1 Woche her00
udp://zer0day.ch:1337/announce 1 Woche her00
udp://tracker.leechers-paradise.org:6969/announce 1 Woche her00

Verteile diesen torrent